Take the 2-minute tour ×
Ask Ubuntu is a question and answer site for Ubuntu users and developers. It's 100% free, no registration required.

As the title says,I have single mkv file which contains subtitles , Is it possible to convert using avconv or mencoder?

Media info of the file:

Input #0, matroska,webm, from 'r.mkv':
  Duration: 01:58:53.22, start: 0.000000, bitrate: N/A
    Stream #0.0(eng): Video: h264 (High), yuv420p, 1280x544 [PAR 1:1 DAR 40:17], 23.98 fps, 23.98 tbr, 1k tbn, 47.95 tbc
    Metadata:
      title           :a
    Stream #0.1: Audio: aac, 48000 Hz, stereo, s16 (default)
    Metadata:
      title           :b
    Stream #0.2: Subtitle: [0][0][0][0] / 0x0000 (default)
    Metadata:
      title           :c
share|improve this question

Your Answer

 
discard

By posting your answer, you agree to the privacy policy and terms of service.

Browse other questions tagged or ask your own question.